<?xml version="1.0" encoding="utf-8"?><svg xmlns="http://www.w3.org/2000/svg" xmlns:xml="http://www.w3.org/XML/1998/namespace" xmlns:xlink="http://www.w3.org/1999/xlink" version="1.1" x="0px" y="0px" width="242.6px" height="153.1px" viewBox="0 0 242.6 153.1" xml:space="preserve" style="enable-background: new 0 0 242.6 153.1; border-radius: 8.41px"><style type="text/css"><![CDATA[
	.st0{fill:#FFFFFF;}
	.st1{fill:#E30613;}
	.st2{font-family:'FiraSans-Bold';}
	.st3{font-size:15px;}
	.st4{fill:#3D3D3C;}
	.st5{fill:#AA182C;}
]]></style><font horiz-adv-x="1000"><font-face units-per-em="1000" underline-position="-75" underline-thickness="50" style="font-family: FiraSans-Bold" /><missing-glyph horiz-adv-x="666" d="M543,1050l0,-1400l-420,0l0,1400M489,998l-311,0l0,-1296l311,0M435,336C435,301 428,273 413,254C398,235 373,223 340,218l0,-45C340,166 338,160 333,156C328,151 322,149 315,149C308,149 303,151 298,156C293,160 290,166 290,173l0,84C325,259 349,266 362,277C375,288 381,307 381,334C381,356 377,373 368,385C359,397 343,403 320,403C301,403 283,399 268,392C263,390 258,389 255,389C248,389 242,391 238,396C233,400 231,405 231,412C231,425 241,434 261,441C280,448 301,451 324,451C364,451 393,440 410,419C427,398 435,370 435,336M350,85C350,74 347,66 340,59C333,52 325,48 315,48C305,48 297,52 290,59C283,66 280,74 280,85C280,95 283,103 290,110C297,117 305,120 315,120C325,120 333,117 340,110C347,103 350,95 350,85z" /><glyph unicode=" " horiz-adv-x="237" /><glyph unicode="A" horiz-adv-x="590" d="M430,0l-36,149l-202,0l-35,-149l-170,0l209,693l199,0l209,-693M220,268l146,0l-73,306z" /><glyph unicode="Á" horiz-adv-x="590" d="M430,0l-36,149l-202,0l-35,-149l-170,0l209,693l199,0l209,-693M220,268l146,0l-73,306M377,956l59,-118l-240,-87l-40,80z" /><glyph unicode="Â" horiz-adv-x="590" d="M430,0l-36,149l-202,0l-35,-149l-170,0l209,693l199,0l209,-693M220,268l146,0l-73,306M163,755l-57,65l142,129l96,0l141,-129l-56,-65l-133,84z" /><glyph unicode="Ä" horiz-adv-x="590" d="M430,0l-36,149l-202,0l-35,-149l-170,0l209,693l199,0l209,-693M220,268l146,0l-73,306M260,846C260,824 252,805 237,790C221,775 202,767 179,767C156,767 137,775 122,790C106,805 98,824 98,846C98,868 106,887 122,902C137,917 156,925 179,925C202,925 221,917 237,902C252,887 260,868 260,846M491,846C491,824 483,805 468,790C453,775 433,767 410,767C388,767 369,775 354,790C338,805 330,824 330,846C330,868 338,887 354,902C369,917 388,925 410,925C433,925 453,917 468,902C483,887 491,868 491,846z" /><glyph unicode="À" horiz-adv-x="590" d="M430,0l-36,149l-202,0l-35,-149l-170,0l209,693l199,0l209,-693M220,268l146,0l-73,306M211,956l221,-125l-40,-80l-240,87z" /><glyph unicode="Å" horiz-adv-x="590" d="M430,0l-36,149l-202,0l-35,-149l-170,0l209,693l199,0l209,-693M220,268l146,0l-73,306M435,862C435,825 422,794 397,769C372,744 338,731 296,731C254,731 220,744 195,769C170,794 157,825 157,862C157,899 170,930 195,955C220,980 254,993 296,993C338,993 372,980 397,955C422,930 435,899 435,862M251,862C251,846 255,834 263,825C271,816 282,812 296,812C309,812 320,816 329,825C337,834 341,846 341,862C341,878 337,890 329,899C321,908 310,912 296,912C282,912 271,908 263,899C255,890 251,878 251,862z" /><glyph unicode="Ã" horiz-adv-x="590" d="M430,0l-36,149l-202,0l-35,-149l-170,0l209,693l199,0l209,-693M220,268l146,0l-73,306M281,788C264,800 251,806 240,806C229,806 219,803 212,796C204,789 196,777 187,762l-79,38C121,835 139,863 162,885C184,907 209,918 237,918C252,918 266,916 277,911C288,906 300,899 313,890C322,884 330,880 336,877C341,874 347,873 353,873C364,873 373,877 381,884C388,891 396,902 405,917l79,-39C470,843 452,814 430,793C407,772 382,761 354,761C339,761 327,763 316,768C305,773 294,779 281,788z" /><glyph unicode="Æ" horiz-adv-x="845" d="M582,118l230,0l0,-118l-368,0l-26,149l-215,0l-50,-149l-176,0l272,693l526,0l-17,-117l-270,0l34,-168l244,0l0,-115l-220,0M243,268l155,0l-53,305z" /><glyph unicode="B" horiz-adv-x="617" d="M590,202C590,128 564,76 511,46C458,15 383,0 288,0l-223,0l0,693l196,0C358,693 433,679 484,652C535,624 561,579 561,516C561,475 549,443 525,418C500,393 470,376 434,367C480,358 518,341 547,316C576,291 590,253 590,202M229,577l0,-161l61,0C359,416 394,444 394,500C394,528 385,548 366,560C347,571 318,577 277,577M421,211C421,275 381,307 301,307l-72,0l0,-188l60,0C332,119 365,126 388,139C410,152 421,176 421,211z" /><glyph unicode="C" horiz-adv-x="575" d="M559,634l-78,-93C460,557 440,569 420,577C400,585 379,589 356,589C309,589 273,569 246,530C219,491 205,430 205,348C205,267 219,208 246,169C273,130 310,110 358,110C383,110 406,115 427,125C448,134 470,148 494,166l73,-94C541,46 510,25 473,8C436,-9 395,-17 350,-17C286,-17 230,-3 183,25C136,53 99,95 73,150C46,205 33,271 33,348C33,423 47,488 74,543C101,598 138,639 186,668C233,696 287,710 348,710C391,710 430,704 464,691C497,678 529,659 559,634z" /><glyph unicode="Ç" horiz-adv-x="575" d="M487,-147C487,-181 474,-209 447,-230C420,-251 383,-262 338,-262C315,-262 294,-259 275,-253C256,-248 239,-241 226,-232l36,73C285,-170 306,-176 326,-176C357,-176 373,-166 373,-146C373,-134 366,-125 351,-120C336,-115 313,-112 281,-112l12,99C212,-1 149,36 103,99C56,161 33,244 33,348C33,423 47,488 74,543C101,598 138,639 186,668C233,696 287,710 348,710C391,710 430,704 464,691C497,678 529,659 559,634l-78,-93C460,557 440,569 420,577C400,585 379,589 356,589C309,589 273,569 246,530C219,491 205,430 205,348C205,267 219,208 246,169C273,130 310,110 358,110C383,110 406,115 427,125C448,134 470,148 494,166l73,-94C544,49 517,30 486,15C455,-1 420,-11 383,-15l0,-33C418,-52 445,-62 462,-79C479,-96 487,-119 487,-147z" /><glyph unicode="D" horiz-adv-x="651" d="M618,350C618,221 586,131 522,79C458,26 375,0 273,0l-208,0l0,693l193,0C367,693 454,669 520,620C585,571 618,481 618,350M229,574l0,-455l54,0C337,119 378,136 406,170C434,203 448,263 448,350C448,409 441,455 427,488C413,521 394,543 370,556C346,568 316,574 281,574z" /><glyph unicode="Ð" horiz-adv-x="665" d="M632,350C632,221 600,131 536,79C472,26 389,0 287,0l-208,0l0,304l-65,0l0,98l65,0l0,291l193,0C381,693 468,669 534,620C599,571 632,481 632,350M462,350C462,409 455,455 441,488C427,521 408,543 384,556C360,568 330,574 295,574l-52,0l0,-172l134,0l0,-98l-134,0l0,-185l54,0C351,119 392,136 420,170C448,203 462,263 462,350z" /><glyph unicode="E" horiz-adv-x="526" d="M490,693l-17,-117l-244,0l0,-166l213,0l0,-115l-213,0l0,-177l261,0l0,-118l-425,0l0,693z" /><glyph unicode="É" horiz-adv-x="526" d="M490,693l-17,-117l-244,0l0,-166l213,0l0,-115l-213,0l0,-177l261,0l0,-118l-425,0l0,693M360,956l59,-118l-240,-87l-40,80z" /><glyph unicode="Ê" horiz-adv-x="526" d="M490,693l-17,-117l-244,0l0,-166l213,0l0,-115l-213,0l0,-177l261,0l0,-118l-425,0l0,693M146,755l-57,65l142,129l96,0l141,-129l-56,-65l-133,84z" /><glyph unicode="Ë" horiz-adv-x="526" d="M490,693l-17,-117l-244,0l0,-166l213,0l0,-115l-213,0l0,-177l261,0l0,-118l-425,0l0,693M243,846C243,824 235,805 220,790C204,775 185,767 162,767C139,767 120,775 105,790C89,805 81,824 81,846C81,868 89,887 105,902C120,917 139,925 162,925C185,925 204,917 220,902C235,887 243,868 243,846M474,846C474,824 466,805 451,790C436,775 416,767 393,767C371,767 352,775 337,790C321,805 313,824 313,846C313,868 321,887 337,902C352,917 371,925 393,925C416,925 436,917 451,902C466,887 474,868 474,846z" /><glyph unicode="È" horiz-adv-x="526" d="M490,693l-17,-117l-244,0l0,-166l213,0l0,-115l-213,0l0,-177l261,0l0,-118l-425,0l0,693M194,956l221,-125l-40,-80l-240,87z" /><glyph unicode="F" horiz-adv-x="487" d="M65,0l0,693l413,0l-17,-117l-232,0l0,-184l202,0l0,-117l-202,0l0,-275z" /><glyph unicode="G" horiz-adv-x="645" d="M596,625l-83,-87C488,557 466,570 445,579C424,587 399,591 372,591C321,591 280,571 249,531C218,490 203,429 203,347C203,258 215,196 238,159C261,122 298,103 347,103C382,103 413,111 441,126l0,157l-90,0l-16,116l265,0l0,-343C564,33 524,15 481,2C438,-11 394,-17 351,-17C246,-17 166,14 113,76C60,137 33,228 33,347C33,423 48,488 77,543C106,598 145,639 196,668C246,696 302,710 365,710C454,710 531,682 596,625z" /><glyph unicode="H" horiz-adv-x="666" d="M437,0l0,297l-208,0l0,-297l-164,0l0,693l164,0l0,-268l208,0l0,268l164,0l0,-693z" /><glyph unicode="I" horiz-adv-x="293" d="M229,693l0,-693l-164,0l0,693z" /><glyph unicode="Í" horiz-adv-x="293" d="M229,693l0,-693l-164,0l0,693M227,956l59,-118l-240,-87l-40,80z" /><glyph unicode="Î" horiz-adv-x="293" d="M229,693l0,-693l-164,0l0,693M13,755l-57,65l142,129l96,0l141,-129l-56,-65l-133,84z" /><glyph unicode="Ï" horiz-adv-x="293" d="M229,693l0,-693l-164,0l0,693M110,846C110,824 102,805 87,790C71,775 52,767 29,767C6,767 -13,775 -28,790C-44,805 -52,824 -52,846C-52,868 -44,887 -28,902C-13,917 6,925 29,925C52,925 71,917 87,902C102,887 110,868 110,846M341,846C341,824 333,805 318,790C303,775 283,767 260,767C238,767 219,775 204,790C188,805 180,824 180,846C180,868 188,887 204,902C219,917 238,925 260,925C283,925 303,917 318,902C333,887 341,868 341,846z" /><glyph unicode="Ì" horiz-adv-x="293" d="M229,693l0,-693l-164,0l0,693M61,956l221,-125l-40,-80l-240,87z" /><glyph unicode="J" horiz-adv-x="317" d="M256,105C256,50 246,4 227,-32C207,-68 181,-96 149,-116C116,-137 78,-154 33,-169l-44,116C18,-42 40,-29 55,-14C70,1 80,18 85,37C90,56 92,81 92,111l0,582l164,0z" /><glyph unicode="K" horiz-adv-x="633" d="M229,693l0,-693l-164,0l0,693M627,693l-221,-311l239,-382l-190,0l-221,370l220,323z" /><glyph unicode="L" horiz-adv-x="513" d="M229,693l0,-563l270,0l-17,-130l-417,0l0,693z" /><glyph unicode="M" horiz-adv-x="786" d="M753,0l-161,0l-12,271C577,336 575,393 575,444C575,483 576,519 578,554l-107,-481l-155,0l-114,481C206,496 208,441 208,390C208,351 207,311 205,269l-12,-269l-160,0l52,693l207,0l104,-470l97,470l208,0z" /><glyph unicode="N" horiz-adv-x="663" d="M599,0l-209,0l-200,537C197,484 202,438 206,398C209,357 211,309 211,254l0,-254l-146,0l0,693l204,0l205,-538C459,246 452,332 452,413l0,280l147,0z" /><glyph unicode="Ñ" horiz-adv-x="663" d="M599,0l-209,0l-200,537C197,484 202,438 206,398C209,357 211,309 211,254l0,-254l-146,0l0,693l204,0l205,-538C459,246 452,332 452,413l0,280l147,0M321,788C304,800 291,806 280,806C269,806 259,803 252,796C244,789 236,777 227,762l-79,38C161,835 179,863 202,885C224,907 249,918 277,918C292,918 306,916 317,911C328,906 340,899 353,890C362,884 370,880 376,877C381,874 387,873 393,873C404,873 413,877 421,884C428,891 436,902 445,917l79,-39C510,843 492,814 470,793C447,772 422,761 394,761C379,761 367,763 356,768C345,773 334,779 321,788z" /><glyph unicode="O" horiz-adv-x="691" d="M658,347C658,272 646,207 621,152C596,97 560,56 513,27C466,-2 410,-17 345,-17C280,-17 225,-3 178,26C131,55 96,96 71,151C46,205 33,270 33,347C33,422 46,486 71,541C96,596 131,638 178,667C225,696 280,710 345,710C444,710 521,678 576,615C631,552 658,462 658,347M205,347C205,262 217,200 240,161C263,122 298,103 345,103C393,103 429,122 452,161C475,199 486,261 486,347C486,433 474,495 451,533C428,571 392,590 345,590C298,590 263,571 240,533C217,494 205,432 205,347z" /><glyph unicode="Ó" horiz-adv-x="691" d="M658,347C658,272 646,207 621,152C596,97 560,56 513,27C466,-2 410,-17 345,-17C280,-17 225,-3 178,26C131,55 96,96 71,151C46,205 33,270 33,347C33,422 46,486 71,541C96,596 131,638 178,667C225,696 280,710 345,710C444,710 521,678 576,615C631,552 658,462 658,347M205,347C205,262 217,200 240,161C263,122 298,103 345,103C393,103 429,122 452,161C475,199 486,261 486,347C486,433 474,495 451,533C428,571 392,590 345,590C298,590 263,571 240,533C217,494 205,432 205,347M426,956l59,-118l-240,-87l-40,80z" /><glyph unicode="Ô" horiz-adv-x="691" d="M658,347C658,272 646,207 621,152C596,97 560,56 513,27C466,-2 410,-17 345,-17C280,-17 225,-3 178,26C131,55 96,96 71,151C46,205 33,270 33,347C33,422 46,486 71,541C96,596 131,638 178,667C225,696 280,710 345,710C444,710 521,678 576,615C631,552 658,462 658,347M205,347C205,262 217,200 240,161C263,122 298,103 345,103C393,103 429,122 452,161C475,199 486,261 486,347C486,433 474,495 451,533C428,571 392,590 345,590C298,590 263,571 240,533C217,494 205,432 205,347M212,755l-57,65l142,129l96,0l141,-129l-56,-65l-133,84z" /><glyph unicode="Ö" horiz-adv-x="691" d="M658,347C658,272 646,207 621,152C596,97 560,56 513,27C466,-2 410,-17 345,-17C280,-17 225,-3 178,26C131,55 96,96 71,151C46,205 33,270 33,347C33,422 46,486 71,541C96,596 131,638 178,667C225,696 280,710 345,710C444,710 521,678 576,615C631,552 658,462 658,347M205,347C205,262 217,200 240,161C263,122 298,103 345,103C393,103 429,122 452,161C475,199 486,261 486,347C486,433 474,495 451,533C428,571 392,590 345,590C298,590 263,571 240,533C217,494 205,432 205,347M309,846C309,824 301,805 286,790C270,775 251,767 228,767C205,767 186,775 171,790C155,805 147,824 147,846C147,868 155,887 171,902C186,917 205,925 228,925C251,925 270,917 286,902C301,887 309,868 309,846M540,846C540,824 532,805 517,790C502,775 482,767 459,767C437,767 418,775 403,790C387,805 379,824 379,846C379,868 387,887 403,902C418,917 437,925 459,925C482,925 502,917 517,902C532,887 540,868 540,846z" /><glyph unicode="Ò" horiz-adv-x="691" d="M658,347C658,272 646,207 621,152C596,97 560,56 513,27C466,-2 410,-17 345,-17C280,-17 225,-3 178,26C131,55 96,96 71,151C46,205 33,270 33,347C33,422 46,486 71,541C96,596 131,638 178,667C225,696 280,710 345,710C444,710 521,678 576,615C631,552 658,462 658,347M205,347C205,262 217,200 240,161C263,122 298,103 345,103C393,103 429,122 452,161C475,199 486,261 486,347C486,433 474,495 451,533C428,571 392,590 345,590C298,590 263,571 240,533C217,494 205,432 205,347M260,956l221,-125l-40,-80l-240,87z" /><glyph unicode="Ø" horiz-adv-x="691" d="M658,347C658,272 646,207 621,152C596,97 560,56 513,27C466,-2 410,-17 345,-17C328,-17 312,-16 296,-14l-36,-120l-124,32l40,129C130,56 95,97 70,152C45,206 33,271 33,347C33,422 46,486 71,541C96,596 131,638 178,667C225,696 280,710 345,710C362,710 379,709 395,707l37,121l123,-33l-41,-128C561,639 596,598 621,543C646,488 658,423 658,347M205,347C205,251 218,185 243,148l132,440C363,589 353,590 345,590C298,590 263,571 240,533C217,494 205,432 205,347M486,347C486,444 473,511 448,546l-133,-441C328,104 338,103 345,103C393,103 429,122 452,161C475,199 486,261 486,347z" /><glyph unicode="Õ" horiz-adv-x="691" d="M658,347C658,272 646,207 621,152C596,97 560,56 513,27C466,-2 410,-17 345,-17C280,-17 225,-3 178,26C131,55 96,96 71,151C46,205 33,270 33,347C33,422 46,486 71,541C96,596 131,638 178,667C225,696 280,710 345,710C444,710 521,678 576,615C631,552 658,462 658,347M205,347C205,262 217,200 240,161C263,122 298,103 345,103C393,103 429,122 452,161C475,199 486,261 486,347C486,433 474,495 451,533C428,571 392,590 345,590C298,590 263,571 240,533C217,494 205,432 205,347M330,788C313,800 300,806 289,806C278,806 268,803 261,796C253,789 245,777 236,762l-79,38C170,835 188,863 211,885C233,907 258,918 286,918C301,918 315,916 326,911C337,906 349,899 362,890C371,884 379,880 385,877C390,874 396,873 402,873C413,873 422,877 430,884C437,891 445,902 454,917l79,-39C519,843 501,814 479,793C456,772 431,761 403,761C388,761 376,763 365,768C354,773 343,779 330,788z" /><glyph unicode="P" horiz-adv-x="600" d="M578,467C578,389 553,330 504,291C454,251 387,231 304,231l-75,0l0,-231l-164,0l0,693l224,0C380,693 451,674 502,636C553,598 578,542 578,467M409,467C409,540 368,576 287,576l-58,0l0,-227l61,0C329,349 358,358 379,377C399,395 409,425 409,467z" /><glyph unicode="Þ" horiz-adv-x="600" d="M578,356C578,276 553,216 504,175C454,134 387,114 304,114l-75,0l0,-114l-164,0l0,693l164,0l0,-108l60,0C380,585 451,566 502,527C553,488 578,431 578,356M409,356C409,394 399,422 379,441C358,459 328,468 287,468l-58,0l0,-235l61,0C329,233 358,243 379,262C399,281 409,312 409,356z" /><glyph unicode="Q" horiz-adv-x="690" d="M700,-18l-99,-129C563,-104 524,-71 484,-48C444,-25 394,-14 335,-14C273,-14 219,0 174,29C129,57 94,98 70,152C45,206 33,271 33,347C33,422 46,486 71,541C96,596 131,638 178,667C225,696 280,710 345,710C444,710 521,678 576,615C631,552 658,462 658,347C658,206 604,105 495,45C538,45 576,40 608,30C640,19 671,3 700,-18M345,103C393,103 429,122 452,161C475,199 486,261 486,347C486,433 474,495 451,533C428,571 392,590 345,590C298,590 263,571 240,533C217,494 205,432 205,347C205,262 217,200 240,161C263,122 298,103 345,103z" /><glyph unicode="R" horiz-adv-x="617" d="M293,265l-64,0l0,-265l-164,0l0,693l227,0C387,693 458,676 506,641C553,606 577,553 577,482C577,437 566,400 545,371C524,341 490,316 444,295l176,-295l-185,0M229,378l69,0C335,378 362,386 381,403C399,420 408,446 408,482C408,515 398,540 379,555C359,570 329,578 288,578l-59,0z" /><glyph unicode="S" horiz-adv-x="572" d="M528,621l-76,-89C405,571 354,590 300,590C271,590 249,584 232,573C215,561 207,544 207,522C207,507 211,494 218,485C225,475 238,466 257,457C276,448 304,438 341,426C412,403 464,376 497,343C530,310 547,263 547,202C547,159 536,121 514,88C492,55 460,29 419,11C378,-8 329,-17 272,-17C215,-17 165,-8 122,10C78,28 40,52 9,82l83,91C119,150 146,133 175,122C203,111 234,105 267,105C301,105 328,113 348,128C367,143 377,163 377,190C377,207 373,222 366,234C359,245 346,256 328,265C310,274 284,284 250,295C173,318 119,347 87,381C54,415 38,458 38,510C38,550 49,585 70,616C91,646 121,669 159,686C197,702 240,710 288,710C340,710 385,703 424,688C462,673 497,651 528,621z" /><glyph unicode="T" horiz-adv-x="540" d="M539,693l-16,-126l-171,0l0,-567l-164,0l0,567l-179,0l0,126z" /><glyph unicode="U" horiz-adv-x="651" d="M596,230C596,183 586,140 566,103C545,66 515,36 474,15C433,-6 384,-17 325,-17C237,-17 170,5 124,50C78,95 55,155 55,230l0,463l164,0l0,-456C219,192 228,159 245,138C262,116 288,105 325,105C362,105 390,116 407,138C424,159 432,192 432,237l0,456l164,0z" /><glyph unicode="Ú" horiz-adv-x="651" d="M596,230C596,183 586,140 566,103C545,66 515,36 474,15C433,-6 384,-17 325,-17C237,-17 170,5 124,50C78,95 55,155 55,230l0,463l164,0l0,-456C219,192 228,159 245,138C262,116 288,105 325,105C362,105 390,116 407,138C424,159 432,192 432,237l0,456l164,0M406,956l59,-118l-240,-87l-40,80z" /><glyph unicode="Û" horiz-adv-x="651" d="M596,230C596,183 586,140 566,103C545,66 515,36 474,15C433,-6 384,-17 325,-17C237,-17 170,5 124,50C78,95 55,155 55,230l0,463l164,0l0,-456C219,192 228,159 245,138C262,116 288,105 325,105C362,105 390,116 407,138C424,159 432,192 432,237l0,456l164,0M192,755l-57,65l142,129l96,0l141,-129l-56,-65l-133,84z" /><glyph unicode="Ü" horiz-adv-x="651" d="M596,230C596,183 586,140 566,103C545,66 515,36 474,15C433,-6 384,-17 325,-17C237,-17 170,5 124,50C78,95 55,155 55,230l0,463l164,0l0,-456C219,192 228,159 245,138C262,116 288,105 325,105C362,105 390,116 407,138C424,159 432,192 432,237l0,456l164,0M289,846C289,824 281,805 266,790C250,775 231,767 208,767C185,767 166,775 151,790C135,805 127,824 127,846C127,868 135,887 151,902C166,917 185,925 208,925C231,925 250,917 266,902C281,887 289,868 289,846M520,846C520,824 512,805 497,790C482,775 462,767 439,767C417,767 398,775 383,790C367,805 359,824 359,846C359,868 367,887 383,902C398,917 417,925 439,925C462,925 482,917 497,902C512,887 520,868 520,846z" /><glyph unicode="Ù" horiz-adv-x="651" d="M596,230C596,183 586,140 566,103C545,66 515,36 474,15C433,-6 384,-17 325,-17C237,-17 170,5 124,50C78,95 55,155 55,230l0,463l164,0l0,-456C219,192 228,159 245,138C262,116 288,105 325,105C362,105 390,116 407,138C424,159 432,192 432,237l0,456l164,0M240,956l221,-125l-40,-80l-240,87z" /><glyph unicode="V" horiz-adv-x="570" d="M584,693l-193,-693l-204,0l-200,693l173,0l132,-565l124,565z" /><glyph unicode="W" horiz-adv-x="847" d="M837,693l-116,-693l-213,0l-86,529l-91,-529l-208,0l-114,693l164,0l69,-569l96,569l172,0l90,-569l81,569z" /><glyph unicode="X" horiz-adv-x="581" d="M385,374l200,-374l-179,0l-119,264l-117,-264l-174,0l194,368l-179,325l178,0l100,-222l105,222l174,0z" /><glyph unicode="Y" horiz-adv-x="594" d="M601,693l-222,-433l0,-260l-164,0l0,259l-222,434l179,0l128,-305l128,305z" /><glyph unicode="Ý" horiz-adv-x="594" d="M601,693l-222,-433l0,-260l-164,0l0,259l-222,434l179,0l128,-305l128,305M378,956l59,-118l-240,-87l-40,80z" /><glyph unicode="Z" horiz-adv-x="544" d="M512,693l0,-124l-301,-438l306,0l-16,-131l-483,0l0,123l307,443l-276,0l0,127z" /><glyph unicode="a" horiz-adv-x="548" d="M520,89l-33,-103C454,-11 428,-4 407,8C386,19 370,38 359,63C324,10 271,-17 199,-17C146,-17 104,-2 73,29C42,60 26,100 26,149C26,207 47,251 90,282C133,313 194,328 275,328l54,0l0,23C329,382 322,404 309,416C296,427 272,433 239,433C222,433 201,431 176,426C151,421 126,414 100,405l-36,104C97,522 132,531 167,538C202,545 234,548 264,548C340,548 396,532 431,501C466,470 484,423 484,360l0,-206C484,134 487,119 493,110C498,101 507,94 520,89M329,147l0,94l-39,0C254,241 227,235 210,222C192,209 183,190 183,163C183,142 189,125 200,114C211,102 226,96 245,96C281,96 309,113 329,147z" /><glyph unicode="á" horiz-adv-x="548" d="M520,89l-33,-103C454,-11 428,-4 407,8C386,19 370,38 359,63C324,10 271,-17 199,-17C146,-17 104,-2 73,29C42,60 26,100 26,149C26,207 47,251 90,282C133,313 194,328 275,328l54,0l0,23C329,382 322,404 309,416C296,427 272,433 239,433C222,433 201,431 176,426C151,421 126,414 100,405l-36,104C97,522 132,531 167,538C202,545 234,548 264,548C340,548 396,532 431,501C466,470 484,423 484,360l0,-206C484,134 487,119 493,110C498,101 507,94 520,89M329,147l0,94l-39,0C254,241 227,235 210,222C192,209 183,190 183,163C183,142 189,125 200,114C211,102 226,96 245,96C281,96 309,113 329,147M343,835l62,-118l-236,-95l-44,81z" /><glyph unicode="â" horiz-adv-x="548" d="M520,89l-33,-103C454,-11 428,-4 407,8C386,19 370,38 359,63C324,10 271,-17 199,-17C146,-17 104,-2 73,29C42,60 26,100 26,149C26,207 47,251 90,282C133,313 194,328 275,328l54,0l0,23C329,382 322,404 309,416C296,427 272,433 239,433C222,433 201,431 176,426C151,421 126,414 100,405l-36,104C97,522 132,531 167,538C202,545 234,548 264,548C340,548 396,532 431,501C466,470 484,423 484,360l0,-206C484,134 487,119 493,110C498,101 507,94 520,89M329,147l0,94l-39,0C254,241 227,235 210,222C192,209 183,190 183,163C183,142 189,125 200,114C211,102 226,96 245,96C281,96 309,113 329,147M137,620l-56,65l141,137l97,0l141,-137l-56,-65l-133,92z" /><glyph unicode="ä" horiz-adv-x="548" d="M520,89l-33,-103C454,-11 428,-4 407,8C386,19 370,38 359,63C324,10 271,-17 199,-17C146,-17 104,-2 73,29C42,60 26,100 26,149C26,207 47,251 90,282C133,313 194,328 275,328l54,0l0,23C329,382 322,404 309,416C296,427 272,433 239,433C222,433 201,431 176,426C151,421 126,414 100,405l-36,104C97,522 132,531 167,538C202,545 234,548 264,548C340,548 396,532 431,501C466,470 484,423 484,360l0,-206C484,134 487,119 493,110C498,101 507,94 520,89M329,147l0,94l-39,0C254,241 227,235 210,222C192,209 183,190 183,163C183,142 189,125 200,114C211,102 226,96 245,96C281,96 309,113 329,147M236,720C236,698 228,679 213,664C197,649 178,641 155,641C132,641 113,649 98,664C82,679 74,698 74,720C74,742 82,761 98,776C113,791 132,799 155,799C178,799 197,791 213,776C228,761 236,742 236,720M467,720C467,698 459,679 444,664C429,649 409,641 386,641C364,641 345,649 330,664C314,679 306,698 306,720C306,742 314,761 330,776C345,791 364,799 386,799C409,799 429,791 444,776C459,761 467,742 467,720z" /><glyph unicode="à" horiz-adv-x="548" d="M520,89l-33,-103C454,-11 428,-4 407,8C386,19 370,38 359,63C324,10 271,-17 199,-17C146,-17 104,-2 73,29C42,60 26,100 26,149C26,207 47,251 90,282C133,313 194,328 275,328l54,0l0,23C329,382 322,404 309,416C296,427 272,433 239,433C222,433 201,431 176,426C151,421 126,414 100,405l-36,104C97,522 132,531 167,538C202,545 234,548 264,548C340,548 396,532 431,501C466,470 484,423 484,360l0,-206C484,134 487,119 493,110C498,101 507,94 520,89M329,147l0,94l-39,0C254,241 227,235 210,222C192,209 183,190 183,163C183,142 189,125 200,114C211,102 226,96 245,96C281,96 309,113 329,147M203,835l218,-132l-44,-81l-236,95z" /><glyph unicode="å" horiz-adv-x="548" d="M520,89l-33,-103C454,-11 428,-4 407,8C386,19 370,38 359,63C324,10 271,-17 199,-17C146,-17 104,-2 73,29C42,60 26,100 26,149C26,207 47,251 90,282C133,313 194,328 275,328l54,0l0,23C329,382 322,404 309,416C296,427 272,433 239,433C222,433 201,431 176,426C151,421 126,414 100,405l-36,104C97,522 132,531 167,538C202,545 234,548 264,548C340,548 396,532 431,501C466,470 484,423 484,360l0,-206C484,134 487,119 493,110C498,101 507,94 520,89M329,147l0,94l-39,0C254,241 227,235 210,222C192,209 183,190 183,163C183,142 189,125 200,114C211,102 226,96 245,96C281,96 309,113 329,147M410,736C410,699 397,668 372,643C347,618 313,605 271,605C229,605 195,618 170,643C145,668 132,699 132,736C132,773 145,804 170,829C195,854 229,867 271,867C313,867 347,854 372,829C397,804 410,773 410,736M226,736C226,720 230,708 238,699C246,690 257,686 271,686C284,686 295,690 304,699C312,708 316,720 316,736C316,752 312,764 304,773C296,782 285,786 271,786C257,786 246,782 238,773C230,764 226,752 226,736z" /><glyph unicode="ã" horiz-adv-x="548" d="M520,89l-33,-103C454,-11 428,-4 407,8C386,19 370,38 359,63C324,10 271,-17 199,-17C146,-17 104,-2 73,29C42,60 26,100 26,149C26,207 47,251 90,282C133,313 194,328 275,328l54,0l0,23C329,382 322,404 309,416C296,427 272,433 239,433C222,433 201,431 176,426C151,421 126,414 100,405l-36,104C97,522 132,531 167,538C202,545 234,548 264,548C340,548 396,532 431,501C466,470 484,423 484,360l0,-206C484,134 487,119 493,110C498,101 507,94 520,89M329,147l0,94l-39,0C254,241 227,235 210,222C192,209 183,190 183,163C183,142 189,125 200,114C211,102 226,96 245,96C281,96 309,113 329,147M256,662C239,674 226,680 215,680C204,680 194,677 187,670C179,663 171,651 162,636l-79,38C96,709 114,737 137,759C159,781 184,792 212,792C227,792 241,790 252,785C263,780 275,773 288,764C297,758 305,754 311,751C316,748 322,747 328,747C339,747 348,751 356,758C363,765 371,776 380,791l79,-39C445,717 427,688 405,667C382,646 357,635 329,635C314,635 302,637 291,642C280,647 269,653 256,662z" /><glyph unicode="æ" horiz-adv-x="855" d="M825,219l-329,0C501,174 513,143 534,125C554,107 582,98 617,98C638,98 659,102 679,110C699,117 721,129 744,145l65,-88C747,8 678,-17 602,-17C555,-17 514,-9 479,7C443,23 414,45 391,74C348,13 286,-17 203,-17C149,-17 106,-2 74,29C42,60 26,100 26,149C26,207 48,251 92,282C135,313 198,328 281,328l54,0l0,22C335,381 328,402 315,414C301,426 278,432 245,432C228,432 207,430 182,425C157,420 132,413 106,404l-36,105C103,522 138,531 173,538C208,545 240,548 270,548C344,548 398,526 433,481C476,526 530,548 595,548C642,548 683,537 718,516C753,494 780,463 799,422C818,381 828,333 828,276C828,254 827,235 825,219M672,321C672,402 643,443 586,443C559,443 539,433 524,413C509,393 499,360 496,314l176,0M348,160C342,181 338,205 337,234l0,4l-40,0C262,238 236,232 219,220C202,207 193,187 193,160C193,140 198,124 209,113C219,102 234,96 253,96C272,96 289,101 304,112C319,123 333,139 348,160z" /><glyph unicode="b" horiz-adv-x="597" d="M560,265C560,210 552,162 535,119C518,76 493,43 462,19C430,-5 392,-17 349,-17C320,-17 294,-11 271,1C247,13 227,30 210,51l-8,-51l-140,0l0,742l158,17l0,-282C236,499 257,516 282,529C307,542 334,548 363,548C426,548 475,523 509,474C543,424 560,354 560,265M396,265C396,328 389,372 374,396C359,420 338,432 310,432C275,432 245,411 220,370l0,-221C230,133 242,121 257,112C271,103 286,98 303,98C365,98 396,154 396,265z" /><glyph unicode="c" horiz-adv-x="479" d="M474,483l-68,-94C373,414 339,427 305,427C270,427 243,414 225,388C207,362 198,320 198,262C198,206 207,166 225,143C243,120 269,108 303,108C321,108 337,111 352,117C367,122 384,131 405,144l69,-98C421,4 362,-17 295,-17C241,-17 194,-5 155,18C116,41 85,73 64,115C43,156 32,205 32,261C32,317 43,367 64,410C85,453 116,487 155,512C194,536 240,548 292,548C329,548 362,543 391,532C420,521 448,505 474,483z" /><glyph unicode="č" horiz-adv-x="479" d="M474,483l-68,-94C373,414 339,427 305,427C270,427 243,414 225,388C207,362 198,320 198,262C198,206 207,166 225,143C243,120 269,108 303,108C321,108 337,111 352,117C367,122 384,131 405,144l69,-98C421,4 362,-17 295,-17C241,-17 194,-5 155,18C116,41 85,73 64,115C43,156 32,205 32,261C32,317 43,367 64,410C85,453 116,487 155,512C194,536 240,548 292,548C329,548 362,543 391,532C420,521 448,505 474,483M424,813l56,-65l-141,-137l-96,0l-142,137l57,65l133,-91z" /><glyph unicode="ç" horiz-adv-x="479" d="M323,-16l0,-32C358,-52 385,-62 402,-79C419,-96 427,-119 427,-147C427,-181 414,-209 387,-230C360,-251 323,-262 278,-262C255,-262 234,-259 215,-253C196,-248 179,-241 166,-232l36,73C225,-170 246,-176 266,-176C297,-176 313,-166 313,-146C313,-134 306,-125 291,-120C276,-115 253,-112 221,-112l12,101C170,2 121,32 86,80C50,128 32,188 32,261C32,317 43,367 64,410C85,453 116,487 155,512C194,536 240,548 292,548C329,548 362,543 391,532C420,521 448,505 474,483l-68,-94C373,414 339,427 305,427C270,427 243,414 225,388C207,362 198,320 198,262C198,206 207,166 225,143C243,120 269,108 303,108C321,108 337,111 352,117C367,122 384,131 405,144l69,-98C429,10 378,-11 323,-16z" /><glyph unicode="d" horiz-adv-x="600" d="M538,742l0,-742l-140,0l-8,62C353,9 302,-17 239,-17C173,-17 123,8 89,59C54,110 37,179 37,267C37,321 46,369 64,412C82,455 108,488 141,512C174,536 211,548 254,548C305,548 347,531 380,498l0,261M380,159l0,229C367,403 355,415 342,422C329,429 314,433 297,433C268,433 244,419 227,392C210,365 201,323 201,266C201,204 209,161 224,136C239,111 260,99 288,99C325,99 355,119 380,159z" /><glyph unicode="ð" horiz-adv-x="579" d="M542,277C542,222 532,172 511,127C490,82 461,47 422,22C383,-4 336,-17 283,-17C235,-17 192,-7 154,13C116,33 86,62 65,100C43,137 32,182 32,234C32,279 41,320 59,358C77,395 102,425 134,447C165,468 201,479 240,479C293,479 337,463 372,432C363,463 350,491 335,515C319,538 297,561 270,582l-55,-55l-99,46l57,59C141,642 110,649 81,654l32,104C166,749 215,736 259,720l73,78l80,-71l-55,-57C423,623 470,568 499,504C528,440 542,364 542,277M381,256l-1,71C354,355 322,369 283,369C223,369 193,325 193,237C193,190 201,155 217,132C233,109 256,98 285,98C318,98 342,111 358,137C373,163 381,203 381,256z" /><glyph unicode="e" horiz-adv-x="552" d="M522,219l-329,0C198,174 211,143 231,125C251,107 279,98 314,98C335,98 356,102 376,110C396,117 418,129 441,145l65,-88C444,8 375,-17 299,-17C213,-17 147,8 101,59C55,110 32,178 32,263C32,317 42,366 61,409C80,452 109,486 146,511C183,536 228,548 280,548C357,548 417,524 460,476C503,428 525,361 525,276C525,254 524,235 522,219M370,321C369,402 340,443 284,443C257,443 236,433 221,413C206,393 196,360 193,314l177,0z" /><glyph unicode="é" horiz-adv-x="552" d="M522,219l-329,0C198,174 211,143 231,125C251,107 279,98 314,98C335,98 356,102 376,110C396,117 418,129 441,145l65,-88C444,8 375,-17 299,-17C213,-17 147,8 101,59C55,110 32,178 32,263C32,317 42,366 61,409C80,452 109,486 146,511C183,536 228,548 280,548C357,548 417,524 460,476C503,428 525,361 525,276C525,254 524,235 522,219M370,321C369,402 340,443 284,443C257,443 236,433 221,413C206,393 196,360 193,314l177,0M355,835l62,-118l-236,-95l-44,81z" /><glyph unicode="ê" horiz-adv-x="552" d="M522,219l-329,0C198,174 211,143 231,125C251,107 279,98 314,98C335,98 356,102 376,110C396,117 418,129 441,145l65,-88C444,8 375,-17 299,-17C213,-17 147,8 101,59C55,110 32,178 32,263C32,317 42,366 61,409C80,452 109,486 146,511C183,536 228,548 280,548C357,548 417,524 460,476C503,428 525,361 525,276C525,254 524,235 522,219M370,321C369,402 340,443 284,443C257,443 236,433 221,413C206,393 196,360 193,314l177,0M149,620l-56,65l141,137l97,0l141,-137l-56,-65l-133,92z" /><glyph unicode="ë" horiz-adv-x="552" d="M522,219l-329,0C198,174 211,143 231,125C251,107 279,98 314,98C335,98 356,102 376,110C396,117 418,129 441,145l65,-88C444,8 375,-17 299,-17C213,-17 147,8 101,59C55,110 32,178 32,263C32,317 42,366 61,409C80,452 109,486 146,511C183,536 228,548 280,548C357,548 417,524 460,476C503,428 525,361 525,276C525,254 524,235 522,219M370,321C369,402 340,443 284,443C257,443 236,433 221,413C206,393 196,360 193,314l177,0M248,720C248,698 240,679 225,664C209,649 190,641 167,641C144,641 125,649 110,664C94,679 86,698 86,720C86,742 94,761 110,776C125,791 144,799 167,799C190,799 209,791 225,776C240,761 248,742 248,720M479,720C479,698 471,679 456,664C441,649 421,641 398,641C376,641 357,649 342,664C326,679 318,698 318,720C318,742 326,761 342,776C357,791 376,799 398,799C421,799 441,791 456,776C471,761 479,742 479,720z" /><glyph unicode="è" horiz-adv-x="552" d="M522,219l-329,0C198,174 211,143 231,125C251,107 279,98 314,98C335,98 356,102 376,110C396,117 418,129 441,145l65,-88C444,8 375,-17 299,-17C213,-17 147,8 101,59C55,110 32,178 32,263C32,317 42,366 61,409C80,452 109,486 146,511C183,536 228,548 280,548C357,548 417,524 460,476C503,428 525,361 525,276C525,254 524,235 522,219M370,321C369,402 340,443 284,443C257,443 236,433 221,413C206,393 196,360 193,314l177,0M215,835l218,-132l-44,-81l-236,95z" /><glyph unicode="f" horiz-adv-x="356" d="M241,572l0,-41l125,0l-17,-110l-108,0l0,-421l-158,0l0,421l-80,0l0,110l80,0l0,47C83,631 101,675 136,709C171,742 221,759 286,759C339,759 387,748 431,725l-43,-103C361,635 334,642 305,642C282,642 266,637 256,626C246,615 241,597 241,572z" /><glyph unicode="g" horiz-adv-x="551" d="M551,500C516,486 465,479 398,479C433,464 458,446 474,425C490,404 498,376 498,342C498,308 489,278 471,251C453,224 427,202 394,187C360,172 320,164 275,164C254,164 233,166 214,170C209,167 205,163 202,158C199,152 197,146 197,140C197,130 201,122 209,117C216,111 232,108 255,108l80,0C376,108 411,101 442,88C473,75 496,56 513,33C530,10 538,-17 538,-46C538,-101 514,-144 467,-175C419,-206 350,-222 260,-222C195,-222 144,-215 107,-201C70,-188 44,-169 29,-144C14,-119 6,-88 6,-51l142,0C148,-67 151,-80 158,-89C164,-98 175,-105 192,-110C209,-115 233,-117 264,-117C307,-117 337,-112 354,-101C371,-91 379,-76 379,-57C379,-41 373,-28 360,-19C347,-10 328,-5 303,-5l-77,0C171,-5 131,5 104,25C77,44 63,69 63,100C63,119 69,138 80,157C91,175 107,190 126,202C93,220 69,241 54,266C39,290 31,319 31,354C31,413 52,461 95,496C138,531 194,548 264,548C317,547 363,552 400,564C437,576 475,594 514,617M188,356C188,327 195,305 210,290C224,274 243,266 268,266C294,266 314,274 328,289C341,304 348,327 348,358C348,415 321,444 268,444C243,444 224,436 210,421C195,405 188,383 188,356z" /><glyph unicode="h" horiz-adv-x="577" d="M520,388l0,-388l-158,0l0,361C362,388 358,406 349,417C340,427 328,432 312,432C280,432 249,409 220,364l0,-364l-158,0l0,742l158,16l0,-284C242,499 265,517 290,530C315,542 342,548 373,548C419,548 455,534 481,506C507,478 520,439 520,388z" /><glyph unicode="i" horiz-adv-x="282" d="M220,531l0,-531l-158,0l0,531M234,721C234,695 225,674 208,657C190,640 167,631 140,631C113,631 90,640 73,657C56,674 47,695 47,721C47,747 56,769 73,786C90,803 113,811 140,811C167,811 190,803 208,786C225,769 234,747 234,721z" /><glyph unicode="í" horiz-adv-x="282" d="M220,531l0,-531l-158,0l0,531M213,835l62,-118l-236,-95l-44,81z" /><glyph unicode="î" horiz-adv-x="282" d="M220,531l0,-531l-158,0l0,531M7,620l-56,65l141,137l97,0l141,-137l-56,-65l-133,92z" /><glyph unicode="ï" horiz-adv-x="282" d="M220,531l0,-531l-158,0l0,531M106,720C106,698 98,679 83,664C67,649 48,641 25,641C2,641 -17,649 -32,664C-48,679 -56,698 -56,720C-56,742 -48,761 -32,776C-17,791 2,799 25,799C48,799 67,791 83,776C98,761 106,742 106,720M337,720C337,698 329,679 314,664C299,649 279,641 256,641C234,641 215,649 200,664C184,679 176,698 176,720C176,742 184,761 200,776C215,791 234,799 256,799C279,799 299,791 314,776C329,761 337,742 337,720z" /><glyph unicode="ì" horiz-adv-x="282" d="M220,531l0,-531l-158,0l0,531M73,835l218,-132l-44,-81l-236,95z" /><glyph unicode="j" horiz-adv-x="281" d="M219,60C219,5 210,-41 193,-77C175,-113 151,-142 121,-163C90,-185 52,-204 6,-221l-53,115C-21,-94 -1,-82 14,-71C29,-60 40,-44 49,-25C57,-6 61,19 61,50l0,481l158,0M234,721C234,695 225,674 208,657C190,640 167,631 140,631C113,631 90,640 73,657C56,674 47,695 47,721C47,747 56,769 73,786C90,803 113,811 140,811C167,811 190,803 208,786C225,769 234,747 234,721z" /><glyph unicode="k" horiz-adv-x="552" d="M220,759l0,-759l-158,0l0,742M548,531l-161,-233l174,-298l-178,0l-158,290l162,241z" /><glyph unicode="l" horiz-adv-x="297" d="M57,135l0,607l158,17l0,-618C215,119 224,108 242,108C251,108 260,110 268,113l31,-112C270,-11 238,-17 203,-17C157,-17 121,-4 96,23C70,49 57,86 57,135z" /><glyph unicode="m" horiz-adv-x="845" d="M788,388l0,-388l-158,0l0,361C630,408 615,432 585,432C568,432 554,426 541,415C528,404 516,386 504,363l0,-363l-158,0l0,361C346,408 331,432 301,432C285,432 271,426 258,415C245,403 232,386 220,363l0,-363l-158,0l0,531l138,0l11,-62C232,496 255,516 280,529C305,542 333,548 365,548C395,548 421,541 443,526C464,511 480,491 490,464C511,493 535,514 561,528C586,541 616,548 649,548C691,548 725,534 750,506C775,477 788,438 788,388z" /><glyph unicode="n" horiz-adv-x="577" d="M520,388l0,-388l-158,0l0,361C362,388 358,406 350,417C341,427 329,432 312,432C280,432 249,409 220,363l0,-363l-158,0l0,531l138,0l11,-63C234,495 258,515 285,528C311,541 340,548 373,548C419,548 455,534 481,506C507,478 520,439 520,388z" /><glyph unicode="ñ" horiz-adv-x="577" d="M520,388l0,-388l-158,0l0,361C362,388 358,406 350,417C341,427 329,432 312,432C280,432 249,409 220,363l0,-363l-158,0l0,531l138,0l11,-63C234,495 258,515 285,528C311,541 340,548 373,548C419,548 455,534 481,506C507,478 520,439 520,388M279,662C262,674 249,680 238,680C227,680 217,677 210,670C202,663 194,651 185,636l-79,38C119,709 137,737 160,759C182,781 207,792 235,792C250,792 264,790 275,785C286,780 298,773 311,764C320,758 328,754 334,751C339,748 345,747 351,747C362,747 371,751 379,758C386,765 394,776 403,791l79,-39C468,717 450,688 428,667C405,646 380,635 352,635C337,635 325,637 314,642C303,647 292,653 279,662z" /><glyph unicode="o" horiz-adv-x="584" d="M552,265C552,208 542,159 521,117C500,74 470,41 431,18C392,-5 345,-17 292,-17C211,-17 148,8 102,58C55,107 32,177 32,266C32,323 43,372 64,415C85,457 115,490 154,513C193,536 239,548 292,548C373,548 437,523 483,474C529,424 552,354 552,265M196,266C196,208 204,166 220,139C235,112 259,99 292,99C324,99 348,113 364,140C380,167 388,208 388,265C388,323 380,365 365,392C349,419 325,432 292,432C260,432 236,419 220,392C204,365 196,323 196,266z" /><glyph unicode="ó" horiz-adv-x="584" d="M552,265C552,208 542,159 521,117C500,74 470,41 431,18C392,-5 345,-17 292,-17C211,-17 148,8 102,58C55,107 32,177 32,266C32,323 43,372 64,415C85,457 115,490 154,513C193,536 239,548 292,548C373,548 437,523 483,474C529,424 552,354 552,265M196,266C196,208 204,166 220,139C235,112 259,99 292,99C324,99 348,113 364,140C380,167 388,208 388,265C388,323 380,365 365,392C349,419 325,432 292,432C260,432 236,419 220,392C204,365 196,323 196,266M364,835l62,-118l-236,-95l-44,81z" /><glyph unicode="ô" horiz-adv-x="584" d="M552,265C552,208 542,159 521,117C500,74 470,41 431,18C392,-5 345,-17 292,-17C211,-17 148,8 102,58C55,107 32,177 32,266C32,323 43,372 64,415C85,457 115,490 154,513C193,536 239,548 292,548C373,548 437,523 483,474C529,424 552,354 552,265M196,266C196,208 204,166 220,139C235,112 259,99 292,99C324,99 348,113 364,140C380,167 388,208 388,265C388,323 380,365 365,392C349,419 325,432 292,432C260,432 236,419 220,392C204,365 196,323 196,266M158,620l-56,65l141,137l97,0l141,-137l-56,-65l-133,92z" /><glyph unicode="ö" horiz-adv-x="584" d="M552,265C552,208 542,159 521,117C500,74 470,41 431,18C392,-5 345,-17 292,-17C211,-17 148,8 102,58C55,107 32,177 32,266C32,323 43,372 64,415C85,457 115,490 154,513C193,536 239,548 292,548C373,548 437,523 483,474C529,424 552,354 552,265M196,266C196,208 204,166 220,139C235,112 259,99 292,99C324,99 348,113 364,140C380,167 388,208 388,265C388,323 380,365 365,392C349,419 325,432 292,432C260,432 236,419 220,392C204,365 196,323 196,266M257,720C257,698 249,679 234,664C218,649 199,641 176,641C153,641 134,649 119,664C103,679 95,698 95,720C95,742 103,761 119,776C134,791 153,799 176,799C199,799 218,791 234,776C249,761 257,742 257,720M488,720C488,698 480,679 465,664C450,649 430,641 407,641C385,641 366,649 351,664C335,679 327,698 327,720C327,742 335,761 351,776C366,791 385,799 407,799C430,799 450,791 465,776C480,761 488,742 488,720z" /><glyph unicode="ò" horiz-adv-x="584" d="M552,265C552,208 542,159 521,117C500,74 470,41 431,18C392,-5 345,-17 292,-17C211,-17 148,8 102,58C55,107 32,177 32,266C32,323 43,372 64,415C85,457 115,490 154,513C193,536 239,548 292,548C373,548 437,523 483,474C529,424 552,354 552,265M196,266C196,208 204,166 220,139C235,112 259,99 292,99C324,99 348,113 364,140C380,167 388,208 388,265C388,323 380,365 365,392C349,419 325,432 292,432C260,432 236,419 220,392C204,365 196,323 196,266M224,835l218,-132l-44,-81l-236,95z" /><glyph unicode="ø" horiz-adv-x="584" d="M552,265C552,208 542,159 521,117C500,74 470,41 431,18C392,-5 345,-17 292,-17C284,-17 273,-16 258,-15l-37,-120l-115,34l39,122C108,44 80,77 61,119C42,160 32,209 32,266C32,323 43,372 64,415C85,457 115,490 154,513C193,536 239,548 292,548C299,548 310,547 325,546l39,121l116,-34l-42,-123C475,487 503,455 523,414C542,372 552,322 552,265M183,266C183,202 191,157 208,132l100,300l-16,0C219,432 183,377 183,266M401,265C401,330 392,374 375,399l-99,-300l16,0C328,99 355,113 374,140C392,167 401,208 401,265z" /><glyph unicode="õ" horiz-adv-x="584" d="M552,265C552,208 542,159 521,117C500,74 470,41 431,18C392,-5 345,-17 292,-17C211,-17 148,8 102,58C55,107 32,177 32,266C32,323 43,372 64,415C85,457 115,490 154,513C193,536 239,548 292,548C373,548 437,523 483,474C529,424 552,354 552,265M196,266C196,208 204,166 220,139C235,112 259,99 292,99C324,99 348,113 364,140C380,167 388,208 388,265C388,323 380,365 365,392C349,419 325,432 292,432C260,432 236,419 220,392C204,365 196,323 196,266M277,662C260,674 247,680 236,680C225,680 215,677 208,670C200,663 192,651 183,636l-79,38C117,709 135,737 158,759C180,781 205,792 233,792C248,792 262,790 273,785C284,780 296,773 309,764C318,758 326,754 332,751C337,748 343,747 349,747C360,747 369,751 377,758C384,765 392,776 401,791l79,-39C466,717 448,688 426,667C403,646 378,635 350,635C335,635 323,637 312,642C301,647 290,653 277,662z" /><glyph unicode="p" horiz-adv-x="597" d="M560,267C560,212 552,164 535,121C518,78 493,44 461,20C429,-5 392,-17 349,-17C296,-17 253,1 220,38l0,-243l-158,-17l0,753l139,0l8,-59C230,498 253,517 280,530C307,542 334,548 362,548C429,548 478,523 511,474C544,425 560,356 560,267M396,265C396,328 389,371 375,396C361,420 340,432 312,432C294,432 277,427 262,416C246,405 232,390 220,370l0,-224C241,115 268,99 301,99C364,99 396,154 396,265z" /><glyph unicode="þ" horiz-adv-x="597" d="M560,267C560,212 552,164 535,121C518,78 493,44 461,20C429,-5 392,-17 349,-17C296,-17 253,1 220,38l0,-242l-158,-18l0,964l158,17l0,-278C240,504 262,521 286,532C310,543 334,548 359,548C427,548 478,524 511,475C544,426 560,356 560,267M396,265C396,328 389,371 375,396C360,420 338,432 309,432C292,432 276,427 261,416C246,405 232,390 220,370l0,-224C241,115 268,99 301,99C364,99 396,154 396,265z" /><glyph unicode="q" horiz-adv-x="600" d="M538,531l0,-753l-158,17l0,256C345,6 298,-17 239,-17C173,-17 123,8 89,59C54,110 37,179 37,267C37,322 46,370 64,413C82,455 108,488 141,512C174,536 212,548 255,548C309,548 355,527 392,485l8,46M380,159l0,229C367,403 355,415 342,422C329,429 315,433 298,433C268,433 244,420 227,393C210,366 201,323 201,266C201,204 209,161 224,136C239,111 260,99 288,99C325,99 355,119 380,159z" /><glyph unicode="r" horiz-adv-x="401" d="M403,539l-25,-153C358,391 342,393 330,393C299,393 275,382 259,361C242,339 229,306 220,263l0,-263l-158,0l0,531l138,0l13,-103C225,465 243,494 268,515C292,536 319,546 350,546C369,546 387,544 403,539z" /><glyph unicode="s" horiz-adv-x="483" d="M444,483l-58,-89C343,421 299,435 255,435C234,435 219,432 208,425C197,418 191,408 191,395C191,385 194,377 199,371C204,364 214,358 229,351C244,344 268,336 300,327C355,311 397,290 424,265C451,239 464,203 464,158C464,122 454,91 433,65C412,38 384,18 348,4C312,-10 272,-17 228,-17C183,-17 142,-10 104,4C65,18 33,37 6,62l77,86C128,113 175,96 224,96C248,96 267,100 281,109C294,118 301,130 301,146C301,159 298,169 293,176C288,183 277,190 262,197C247,203 222,211 189,220C136,235 97,257 71,284C45,311 32,345 32,386C32,417 41,444 59,469C76,493 102,512 135,527C168,541 206,548 249,548C287,548 323,542 356,531C389,520 419,504 444,483z" /><glyph unicode="ß" horiz-adv-x="606" d="M505,609C505,584 500,563 490,547C479,531 464,514 445,495C431,482 421,472 414,463C407,454 404,443 404,431C404,418 409,406 419,396C429,385 445,372 467,357C491,340 511,325 528,310C545,295 559,275 571,251C582,227 588,199 588,166C588,129 579,96 562,69C544,41 520,20 489,5C458,-10 424,-17 386,-17C341,-17 302,-8 267,10l47,107C329,109 347,105 366,105C385,105 399,110 410,121C420,132 425,148 425,169C425,192 419,212 407,227C394,242 376,258 351,275C332,290 318,302 307,312C296,322 286,335 279,350C271,365 267,384 267,405C267,429 271,448 279,463C287,477 299,492 315,509C329,523 339,536 346,547C353,558 356,572 356,590C356,608 350,622 339,632C328,642 313,647 294,647C245,647 220,611 220,538l0,-538l-158,0l0,533C62,604 82,659 123,699C164,739 222,759 298,759C341,759 379,752 410,739C441,725 464,707 481,684C497,661 505,636 505,609z" /><glyph unicode="t" horiz-adv-x="386" d="M395,25C376,12 353,1 328,-6C302,-13 276,-17 251,-17C135,-16 77,48 77,175l0,246l-75,0l0,110l75,0l0,115l158,18l0,-133l122,0l-17,-110l-105,0l0,-244C235,152 239,135 247,124C255,113 268,108 285,108C303,108 322,114 342,125z" /><glyph unicode="u" horiz-adv-x="572" d="M510,0l-137,0l-7,67C327,11 274,-17 205,-17C156,-17 120,-2 95,27C70,56 57,97 57,150l0,381l158,0l0,-361C215,144 219,126 228,116C236,105 249,100 266,100C299,100 328,121 352,162l0,369l158,0z" /><glyph unicode="ú" horiz-adv-x="572" d="M510,0l-137,0l-7,67C327,11 274,-17 205,-17C156,-17 120,-2 95,27C70,56 57,97 57,150l0,381l158,0l0,-361C215,144 219,126 228,116C236,105 249,100 266,100C299,100 328,121 352,162l0,369l158,0M356,835l62,-118l-236,-95l-44,81z" /><glyph unicode="û" horiz-adv-x="572" d="M510,0l-137,0l-7,67C327,11 274,-17 205,-17C156,-17 120,-2 95,27C70,56 57,97 57,150l0,381l158,0l0,-361C215,144 219,126 228,116C236,105 249,100 266,100C299,100 328,121 352,162l0,369l158,0M150,620l-56,65l141,137l97,0l141,-137l-56,-65l-133,92z" /><glyph unicode="ü" horiz-adv-x="572" d="M510,0l-137,0l-7,67C327,11 274,-17 205,-17C156,-17 120,-2 95,27C70,56 57,97 57,150l0,381l158,0l0,-361C215,144 219,126 228,116C236,105 249,100 266,100C299,100 328,121 352,162l0,369l158,0M249,720C249,698 241,679 226,664C210,649 191,641 168,641C145,641 126,649 111,664C95,679 87,698 87,720C87,742 95,761 111,776C126,791 145,799 168,799C191,799 210,791 226,776C241,761 249,742 249,720M480,720C480,698 472,679 457,664C442,649 422,641 399,641C377,641 358,649 343,664C327,679 319,698 319,720C319,742 327,761 343,776C358,791 377,799 399,799C422,799 442,791 457,776C472,761 480,742 480,720z" /><glyph unicode="ù" horiz-adv-x="572" d="M510,0l-137,0l-7,67C327,11 274,-17 205,-17C156,-17 120,-2 95,27C70,56 57,97 57,150l0,381l158,0l0,-361C215,144 219,126 228,116C236,105 249,100 266,100C299,100 328,121 352,162l0,369l158,0M216,835l218,-132l-44,-81l-236,95z" /><glyph unicode="v" horiz-adv-x="513" d="M519,531l-167,-531l-187,0l-171,531l172,0l94,-411l98,411z" /><glyph unicode="w" horiz-adv-x="749" d="M744,531l-110,-531l-189,0l-71,390l-70,-390l-187,0l-113,531l160,0l55,-413l83,413l154,0l73,-413l64,413z" /><glyph unicode="x" horiz-adv-x="512" d="M351,284l171,-284l-179,0l-92,199l-90,-199l-172,0l171,279l-154,252l177,0l74,-170l71,170l168,0z" /><glyph unicode="y" horiz-adv-x="518" d="M355,-1C334,-70 299,-122 251,-159C202,-196 137,-217 56,-222l-17,111C90,-104 127,-93 152,-77C176,-61 195,-35 210,0l-54,0l-162,531l168,0l95,-430l104,430l163,0z" /><glyph unicode="ý" horiz-adv-x="518" d="M355,-1C334,-70 299,-122 251,-159C202,-196 137,-217 56,-222l-17,111C90,-104 127,-93 152,-77C176,-61 195,-35 210,0l-54,0l-162,531l168,0l95,-430l104,430l163,0M331,835l62,-118l-236,-95l-44,81z" /><glyph unicode="z" horiz-adv-x="459" d="M436,531l0,-111l-240,-300l245,0l-14,-120l-414,0l0,112l241,300l-220,0l0,119z" /><glyph unicode="ﬁ" horiz-adv-x="599" d="M481,719l-44,-101C398,634 360,642 323,642C292,642 271,637 260,626C248,615 242,597 242,571l0,-40l295,0l0,-531l-158,0l0,421l-137,0l0,-421l-158,0l0,421l-81,0l0,110l81,0l0,46C84,632 102,676 138,709C174,742 230,759 305,759C368,759 426,746 481,719z" /><glyph unicode="ﬂ" horiz-adv-x="631" d="M633,1C604,-11 570,-17 531,-17C486,-17 452,-4 428,22C403,47 391,84 391,133l0,501C362,641 336,645 313,645C286,645 268,640 258,629C247,618 242,600 242,574l0,-43l101,0l-18,-110l-83,0l0,-421l-158,0l0,421l-81,0l0,110l81,0l0,47C84,631 102,675 137,709C172,742 223,759 290,759C325,759 364,753 406,741l143,15l0,-607C549,134 551,124 556,118C560,111 567,108 576,108C585,108 594,110 602,113z" /><glyph unicode="0" horiz-adv-x="585" d="M548,337C548,224 526,136 483,75C439,14 376,-17 293,-17C210,-17 147,14 104,75C60,136 38,224 38,337C38,451 60,538 104,599C147,660 210,690 293,690C376,690 439,660 483,599C526,538 548,451 548,337M200,337C200,277 203,230 210,196C216,161 226,137 239,122C252,107 270,100 293,100C316,100 334,107 347,122C360,136 370,160 377,195C383,229 386,276 386,337C386,398 383,445 377,480C370,514 360,538 347,552C334,566 316,573 293,573C270,573 252,566 239,551C226,536 216,512 210,478C203,444 200,397 200,337z" /><glyph unicode="1" horiz-adv-x="464" d="M382,676l0,-676l-155,0l0,522l-145,-89l-69,105l228,138z" /><glyph unicode="2" horiz-adv-x="517" d="M471,497C471,461 464,427 449,394C434,361 408,324 371,282C334,239 279,186 208,121l277,0l-16,-121l-440,0l0,112C111,193 171,254 208,295C245,336 272,370 287,397C302,424 309,452 309,481C309,508 301,530 286,546C270,561 249,569 222,569C198,569 177,564 158,553C139,542 120,524 99,499l-93,74C34,610 68,638 107,659C146,680 189,690 238,690C287,690 329,681 364,664C399,647 425,623 444,594C462,565 471,532 471,497z" /><glyph unicode="3" horiz-adv-x="520" d="M464,518C464,477 453,443 430,416C407,389 374,369 332,357C377,352 414,336 443,309C472,281 486,242 486,191C486,153 476,118 456,87C436,55 407,30 368,11C329,-8 282,-17 228,-17C129,-17 52,17 -4,85l85,83C104,145 126,129 148,119C169,108 193,103 219,103C250,103 276,112 295,129C314,146 324,170 324,201C324,236 315,261 297,276C278,291 251,298 214,298l-56,0l17,109l39,0C244,407 268,415 285,430C302,445 311,467 311,495C311,520 303,539 287,553C271,566 249,573 221,573C174,573 130,553 89,514l-78,85C75,660 151,690 239,690C286,690 327,682 361,667C394,652 420,631 438,605C455,579 464,550 464,518z" /><glyph unicode="4" horiz-adv-x="565" d="M544,264l0,-118l-76,0l0,-146l-154,0l-1,146l-285,0l0,105l192,442l134,-50l-163,-379l124,0l17,160l136,0l0,-160z" /><glyph unicode="5" horiz-adv-x="536" d="M454,563l-245,0l0,-142C240,436 274,443 309,443C346,443 380,434 409,417C438,400 461,374 478,341C495,308 503,268 503,223C503,176 492,134 471,98C449,61 418,33 378,13C337,-7 291,-17 238,-17C147,-17 72,17 13,85l88,82C138,124 181,102 232,102C267,102 294,112 313,133C332,154 341,183 341,222C341,297 309,335 246,335C233,335 220,333 207,330C194,326 180,320 165,311l-107,0l0,365l414,0z" /><glyph unicode="6" horiz-adv-x="564" d="M539,231C539,185 529,143 509,106C489,68 461,38 424,16C387,-6 343,-17 294,-17C207,-17 143,12 101,70C59,128 38,208 38,309C38,385 50,452 74,509C97,566 131,611 176,643C220,674 272,690 332,690C390,690 441,675 486,645l-58,-94C398,568 367,577 336,577C298,577 267,561 244,529C221,497 207,452 202,393C243,434 290,455 345,455C382,455 416,446 445,429C474,411 497,385 514,352C531,318 539,278 539,231M381,229C381,271 374,301 361,319C348,337 328,346 301,346C265,346 232,328 202,293C203,222 211,171 225,141C239,111 263,96 296,96C324,96 345,108 360,132C374,155 381,188 381,229z" /><glyph unicode="7" horiz-adv-x="468" d="M450,676l0,-107l-248,-585l-143,48l227,525l-273,0l0,119z" /><glyph unicode="8" horiz-adv-x="581" d="M551,183C551,146 541,113 520,83C499,52 468,28 428,10C388,-8 341,-17 287,-17C234,-17 189,-8 150,10C111,27 81,51 60,81C39,110 29,143 29,180C29,255 71,311 155,348C89,387 56,440 56,508C56,544 66,576 86,603C106,630 134,652 170,667C205,682 246,690 291,690C360,690 416,675 460,644C503,613 525,570 525,516C525,486 516,458 499,432C481,405 454,382 417,363C462,341 496,315 518,286C540,256 551,222 551,183M209,506C209,483 216,465 229,451C242,436 262,423 291,411l21,-8C335,418 350,433 359,450C368,466 372,485 372,508C372,531 365,549 352,563C338,576 318,583 292,583C267,583 247,576 232,563C217,550 209,531 209,506M393,184C393,211 385,233 370,249C355,264 328,279 289,293l-33,12C211,280 188,241 188,188C188,160 197,138 216,121C235,104 260,96 292,96C324,96 349,104 367,121C384,137 393,158 393,184z" /><glyph unicode="9" horiz-adv-x="560" d="M529,428C529,337 514,261 485,201C455,141 409,93 348,57C287,20 207,-8 108,-28l-32,110C163,103 229,130 273,163C317,195 346,240 359,299C324,256 277,234 219,234C184,234 151,243 122,261C93,279 69,305 52,339C35,373 26,412 26,457C26,503 37,544 59,579C81,614 111,642 150,661C188,680 230,690 277,690C358,690 421,666 464,619C507,571 529,507 529,428M368,405C369,468 362,512 348,538C334,564 310,577 277,577C248,577 226,567 210,548C193,528 185,499 185,462C185,421 193,391 208,373C223,354 243,345 268,345C287,345 306,350 323,361C340,371 355,386 368,405z" /><glyph unicode="¹" horiz-adv-x="400" d="M300,742l0,-421l-117,0l0,311l-91,-57l-53,78l154,89z" /><glyph unicode="²" horiz-adv-x="400" d="M353,626C353,605 349,586 340,567C331,548 314,526 290,502C266,477 231,447 186,410l177,0l-12,-89l-298,0l0,82C104,450 142,485 167,510C191,534 208,554 218,570C227,586 232,601 232,616C232,631 228,642 219,651C210,660 197,664 182,664C167,664 153,661 141,654C129,647 117,637 104,622l-68,53C55,699 77,718 104,732C131,745 161,752 194,752C245,752 284,740 312,716C339,691 353,661 353,626z" /><glyph unicode="³" horiz-adv-x="400" d="M352,642C352,618 344,598 329,581C313,564 290,551 259,543C292,541 318,531 338,514C357,497 367,472 367,441C367,404 352,372 321,347C290,322 247,309 192,309C124,309 71,331 33,376l65,62C111,424 124,414 138,408C151,402 166,399 183,399C202,399 217,403 228,412C239,420 245,432 245,449C245,467 240,480 229,489C218,497 201,501 178,501l-37,0l13,80l26,0C199,581 213,585 223,592C232,599 237,610 237,624C237,637 232,648 223,655C214,662 201,665 184,665C153,665 125,653 100,630l-59,62C84,732 137,752 199,752C248,752 285,742 312,721C339,700 352,674 352,642z" /><glyph unicode="½" horiz-adv-x="969" d="M300,693l0,-421l-117,0l0,311l-91,-57l-53,78l154,89M644,759l92,-45l-411,-799l-92,45M922,305C922,284 918,265 909,246C900,227 883,205 859,181C835,156 800,126 755,89l177,0l-12,-89l-298,0l0,82C673,129 711,164 736,189C760,213 777,233 787,249C796,265 801,280 801,295C801,310 797,321 788,330C779,339 766,343 751,343C736,343 722,340 710,333C698,326 686,316 673,301l-68,53C624,378 646,397 673,411C700,424 730,431 763,431C814,431 853,419 881,395C908,370 922,340 922,305z" /><glyph unicode="¼" horiz-adv-x="969" d="M300,693l0,-421l-117,0l0,311l-91,-57l-53,78l154,89M644,759l92,-45l-411,-799l-92,45M943,170l0,-86l-46,0l0,-84l-112,0l0,84l-191,0l0,78l121,269l99,-36l-100,-225l73,0l20,95l90,0l0,-95z" /><glyph unicode="¾" horiz-adv-x="969" d="M352,593C352,569 344,549 329,532C313,515 290,502 259,494C292,492 318,482 338,465C357,448 367,423 367,392C367,355 352,323 321,298C290,273 247,260 192,260C124,260 71,282 33,327l65,62C111,375 124,365 138,359C151,353 166,350 183,350C202,350 217,354 228,363C239,371 245,383 245,400C245,418 240,431 229,440C218,448 201,452 178,452l-37,0l13,80l26,0C199,532 213,536 223,543C232,550 237,561 237,575C237,588 232,599 223,606C214,613 201,616 184,616C153,616 125,604 100,581l-59,62C84,683 137,703 199,703C248,703 285,693 312,672C339,651 352,625 352,593M644,759l92,-45l-411,-799l-92,45M943,170l0,-86l-46,0l0,-84l-112,0l0,84l-191,0l0,78l121,269l99,-36l-100,-225l73,0l20,95l90,0l0,-95z" /><glyph unicode="*" horiz-adv-x="449" d="M441,535l-141,-23l101,-102l-110,-80l-66,127l-66,-128l-110,80l100,102l-141,24l41,126l128,-62l-20,143l136,0l-21,-144l127,64z" /><glyph unicode="\" horiz-adv-x="520" d="M211,816l236,-896l-139,-32l-235,897z" /><glyph unicode="·" horiz-adv-x="240" d="M210,308C210,283 201,261 184,244C166,226 145,217 120,217C95,217 73,226 56,244C38,261 29,283 29,308C29,333 38,354 56,372C73,389 95,398 120,398C145,398 166,389 184,372C201,354 210,333 210,308z" /><glyph unicode="•" horiz-adv-x="346" d="M311,341C311,302 298,269 272,243C245,216 212,203 173,203C134,203 101,216 75,243C48,270 35,303 35,342C35,381 48,414 75,441C101,467 134,480 173,480C212,480 245,467 272,440C298,413 311,380 311,341z" /><glyph unicode=":" horiz-adv-x="240" d="M210,74C210,49 201,27 184,10C166,-8 145,-17 120,-17C95,-17 73,-8 56,10C38,27 29,49 29,74C29,99 38,120 56,138C73,155 95,164 120,164C145,164 166,155 184,138C201,120 210,99 210,74M210,420C210,395 201,373 184,356C166,338 145,329 120,329C95,329 73,338 56,356C38,373 29,395 29,420C29,445 38,466 56,484C73,501 95,510 120,510C145,510 166,501 184,484C201,466 210,445 210,420z" /><glyph unicode="," horiz-adv-x="240" d="M210,74C210,59 208,45 203,30C198,15 190,-5 178,-32l-63,-145l-89,0l43,176C56,8 47,19 40,32C33,45 29,59 29,74C29,99 38,121 55,138C72,155 94,164 120,164C145,164 167,155 184,138C201,121 210,99 210,74z" /><glyph unicode="…" horiz-adv-x="727" d="M453,74C453,49 444,27 427,10C409,-8 388,-17 363,-17C338,-17 316,-8 299,10C281,27 272,49 272,74C272,99 281,120 299,138C316,155 338,164 363,164C388,164 409,155 427,138C444,120 453,99 453,74M697,74C697,49 688,27 671,10C653,-8 632,-17 607,-17C582,-17 560,-8 543,10C525,27 516,49 516,74C516,99 525,120 543,138C560,155 582,164 607,164C632,164 653,155 671,138C688,120 697,99 697,74M210,74C210,49 201,27 184,10C166,-8 145,-17 120,-17C95,-17 73,-8 56,10C38,27 29,49 29,74C29,99 38,120 56,138C73,155 95,164 120,164C145,164 166,155 184,138C201,120 210,99 210,74z" /><glyph unicode="!" horiz-adv-x="240" d="M204,693l-20,-438l-128,0l-20,438M211,74C211,49 202,27 185,10C167,-8 145,-17 120,-17C95,-17 74,-8 57,10C39,27 30,49 30,74C30,99 39,120 57,138C74,155 95,164 120,164C145,164 167,155 185,138C202,120 211,99 211,74z" /><glyph unicode="¡" horiz-adv-x="240" d="M211,419C211,394 202,373 185,356C167,338 145,329 120,329C95,329 74,338 57,356C39,373 30,394 30,419C30,444 39,465 57,483C74,500 95,509 120,509C145,509 167,500 185,483C202,465 211,444 211,419M184,235l21,-445l-168,0l20,445z" /><glyph unicode="#" horiz-adv-x="557" d="M542,440l-70,0l-25,-192l58,0l0,-105l-72,0l-19,-143l-131,0l19,143l-100,0l-19,-143l-131,0l19,143l-56,0l0,105l70,0l25,192l-58,0l0,105l72,0l17,131l131,0l-17,-131l100,0l17,131l131,0l-17,-131l56,0M316,248l25,192l-100,0l-25,-192z" /><glyph unicode="." horiz-adv-x="240" d="M210,74C210,49 201,27 184,10C166,-8 145,-17 120,-17C95,-17 73,-8 56,10C38,27 29,49 29,74C29,99 38,120 56,138C73,155 95,164 120,164C145,164 166,155 184,138C201,120 210,99 210,74z" /><glyph unicode="?" horiz-adv-x="481" d="M467,543C467,516 462,492 453,473C443,454 431,438 418,426C405,414 387,400 365,384C338,366 319,350 306,336C293,321 287,303 287,280l0,-25l-144,0l0,31C143,317 148,344 158,366C167,387 179,404 193,417C206,429 223,442 244,457C264,470 279,482 288,492C297,502 302,514 302,529C302,547 296,561 284,571C271,581 254,586 232,586C190,586 151,566 115,525l-101,78C75,674 153,710 248,710C295,710 335,703 368,688C401,673 425,652 442,627C459,602 467,574 467,543M307,74C307,49 298,27 281,10C263,-8 242,-17 217,-17C192,-17 171,-8 154,10C136,27 127,49 127,74C127,99 136,120 154,138C171,155 192,164 217,164C242,164 263,155 281,138C298,120 307,99 307,74z" /><glyph unicode="¿" horiz-adv-x="481" d="M174,419C174,444 183,465 201,483C218,500 240,509 265,509C290,509 311,500 329,483C346,465 355,444 355,419C355,394 346,373 329,356C311,338 290,329 265,329C240,329 218,338 201,356C183,373 174,394 174,419M14,-55C14,-28 19,-4 29,16C38,35 50,51 64,64C77,76 95,89 117,104C143,121 162,137 175,152C188,166 194,184 194,206l0,30l144,0l0,-36C338,169 333,143 324,122C314,101 303,84 290,72C277,59 259,46 238,31C217,18 203,6 194,-3C185,-13 180,-26 180,-41C180,-59 186,-73 198,-83C210,-93 227,-98 249,-98C292,-98 331,-78 367,-37l100,-78C408,-186 330,-222 233,-222C186,-222 147,-214 114,-199C81,-184 56,-164 39,-139C22,-114 14,-86 14,-55z" /><glyph unicode="&quot;" horiz-adv-x="439" d="M67,414l-19,279l143,0l-20,-279M268,414l-19,279l143,0l-20,-279z" /><glyph unicode="'" horiz-adv-x="238" d="M67,414l-19,279l143,0l-20,-279z" /><glyph unicode=";" horiz-adv-x="240" d="M210,74C210,59 208,45 203,30C198,15 190,-5 178,-32l-63,-145l-89,0l43,176C56,8 47,19 40,32C33,45 29,59 29,74C29,99 38,121 55,138C72,155 94,164 120,164C145,164 167,155 184,138C201,121 210,99 210,74M210,420C210,395 201,373 184,356C166,338 145,329 120,329C95,329 73,338 56,356C38,373 29,395 29,420C29,445 38,466 56,484C73,501 95,510 120,510C145,510 166,501 184,484C201,466 210,445 210,420z" /><glyph unicode="/" horiz-adv-x="520" d="M309,816l138,-31l-235,-897l-139,32z" /><glyph unicode="_" horiz-adv-x="520" d="M10,-171l0,124l500,0l0,-124z" /><glyph unicode="{" horiz-adv-x="324" d="M298,730C269,730 249,726 238,717C227,708 222,692 222,670l0,-186C222,442 214,411 197,392C180,373 154,358 118,349C153,342 179,328 196,309C213,289 222,258 222,216l0,-186C222,8 228,-7 239,-16C250,-25 269,-30 298,-30l0,-110C239,-140 194,-134 161,-121C128,-109 106,-91 93,-67C80,-44 74,-13 74,25l0,179C74,234 70,255 61,267C52,279 34,285 9,285l0,129C34,414 52,420 61,433C70,445 74,466 74,496l0,179C74,714 80,745 93,769C106,792 128,810 161,822C194,834 239,840 298,840z" /><glyph unicode="}" horiz-adv-x="324" d="M249,675l0,-179C249,466 254,445 263,433C272,420 289,414 314,414l0,-129C289,285 272,279 263,267C254,255 249,234 249,204l0,-179C249,-13 243,-44 230,-67C217,-91 195,-109 163,-121C130,-134 85,-140 26,-140l0,110C55,-30 74,-25 85,-16C96,-7 101,8 101,30l0,186C101,257 110,288 127,308C144,328 171,342 206,349C170,358 144,373 127,392C110,411 102,442 102,484l0,186C102,692 97,708 86,717C75,726 55,730 26,730l0,110C85,840 130,834 163,822C195,810 217,792 230,769C243,745 249,714 249,675z" /><glyph unicode="[" horiz-adv-x="324" d="M299,823l0,-118l-115,0l0,-711l115,0l0,-117l-265,0l0,946z" /><glyph unicode="]" horiz-adv-x="324" d="M290,823l0,-946l-265,0l0,118l115,0l0,710l-115,0l0,118z" /><glyph unicode="(" horiz-adv-x="325" d="M313,791C266,723 231,655 210,588C189,520 178,441 178,350C178,259 189,180 210,113C231,45 266,-23 313,-91l-101,-68C169,-99 134,-47 108,-3C82,40 61,91 44,150C27,209 18,275 18,350C18,425 27,491 44,550C61,609 82,660 108,704C134,747 169,799 212,859z" /><glyph unicode=")" horiz-adv-x="325" d="M306,350C306,275 298,209 281,150C264,91 242,40 217,-3C191,-46 156,-98 113,-159l-101,68C59,-22 94,46 115,114C136,181 147,260 147,350C147,440 136,519 115,587C94,654 59,722 12,791l101,68C156,798 191,746 217,703C242,660 264,609 281,550C298,491 306,425 306,350z" /><glyph unicode="—" horiz-adv-x="796" d="M21,252l0,122l754,0l0,-122z" /><glyph unicode="–" horiz-adv-x="520" d="M21,252l0,122l478,0l0,-122z" /><glyph unicode="-" horiz-adv-x="407" d="M44,252l0,122l319,0l0,-122z" /><glyph unicode="­" horiz-adv-x="407" d="M44,252l0,122l319,0l0,-122z" /><glyph unicode="«" horiz-adv-x="628" d="M226,556l97,-65l-129,-206l129,-207l-97,-65l-190,221l0,100M495,556l97,-65l-129,-206l129,-207l-97,-65l-190,221l0,100z" /><glyph unicode="»" horiz-adv-x="625" d="M134,556l189,-222l0,-100l-189,-221l-98,65l129,207l-129,206M400,556l189,-222l0,-100l-189,-221l-98,65l129,207l-129,206z" /><glyph unicode="“" horiz-adv-x="448" d="M38,542C38,555 40,568 45,581C49,594 56,612 67,635l64,131l81,0l-42,-156C195,593 207,570 207,541C207,518 199,499 183,484C166,469 146,461 122,461C98,461 78,469 62,484C46,499 38,519 38,542M243,542C243,555 245,568 250,581C254,594 261,612 272,635l64,131l81,0l-42,-156C400,593 412,570 412,541C412,518 404,499 388,484C371,469 351,461 327,461C303,461 283,469 267,484C251,499 243,519 243,542z" /><glyph unicode="”" horiz-adv-x="448" d="M205,685C205,672 203,659 199,646C194,633 187,615 176,592l-64,-131l-81,0l42,156C48,634 36,657 36,686C36,709 44,728 61,743C77,758 97,766 121,766C145,766 165,758 181,743C197,728 205,708 205,685M410,685C410,672 408,659 404,646C399,633 392,615 381,592l-64,-131l-81,0l42,156C253,634 241,657 241,686C241,709 249,728 266,743C282,758 302,766 326,766C350,766 370,758 386,743C402,728 410,708 410,685z" /><glyph unicode="‘" horiz-adv-x="243" d="M38,542C38,555 40,568 45,581C49,594 56,612 67,635l64,131l81,0l-42,-156C195,593 207,570 207,541C207,518 199,499 183,484C166,469 146,461 122,461C98,461 78,469 62,484C46,499 38,519 38,542z" /><glyph unicode="’" horiz-adv-x="243" d="M205,685C205,672 203,659 199,646C194,633 187,615 176,592l-64,-131l-81,0l42,156C48,634 36,657 36,686C36,709 44,728 61,743C77,758 97,766 121,766C145,766 165,758 181,743C197,728 205,708 205,685z" /><glyph unicode=" " horiz-adv-x="237" /><glyph unicode="¢" horiz-adv-x="479" d="M474,46C434,15 391,-5 346,-13l0,-148l-114,0l0,150C169,2 120,32 85,80C50,128 32,188 32,261C32,335 50,397 86,448C122,498 171,529 233,542l0,149l113,0l0,-147C393,535 436,515 474,483l-68,-94C373,414 339,427 305,427C270,427 243,414 225,388C207,362 198,320 198,262C198,206 207,166 225,143C243,120 269,108 303,108C321,108 337,111 352,117C367,122 384,131 405,144z" /><glyph unicode="$" horiz-adv-x="549" d="M340,-3l0,-158l-114,0l0,152C138,-2 66,30 9,85l81,88C138,128 193,106 256,106C289,106 314,113 333,128C352,143 361,163 361,188C361,205 358,219 351,230C344,241 332,251 315,260C298,269 273,278 240,288C167,311 115,339 84,371C53,403 37,444 37,494C37,544 54,586 89,620C124,653 169,674 226,682l0,148l114,0l0,-148C406,671 461,644 506,601l-73,-86C389,552 341,571 288,571C260,571 238,565 222,554C206,543 198,527 198,506C198,491 202,479 209,470C216,461 228,452 246,444C264,435 291,425 327,414C394,393 444,366 477,334C509,302 525,257 525,200C525,148 509,104 476,69C443,33 398,9 340,-3z" /><glyph unicode="€" horiz-adv-x="591" d="M401,98C449,98 498,112 547,141l0,-121C519,7 493,-2 468,-8C443,-14 415,-17 386,-17C309,-17 245,4 195,45C144,86 111,145 95,220l-86,0l22,82l60,0l0,71l-82,0l22,83l66,0C116,529 153,586 206,628C259,669 320,690 391,690C461,690 525,671 582,632l-56,-96C505,550 485,560 464,567C443,573 421,576 397,576C364,576 336,566 312,546C287,526 269,496 257,456l243,0l-22,-83l-228,0l0,-71l213,0l-21,-82l-187,0C265,178 282,147 306,128C330,108 362,98 401,98z" /><glyph unicode="£" horiz-adv-x="539" d="M202,120l307,0l-18,-120l-463,0l0,114C53,121 71,130 83,140C94,150 102,162 106,176C109,190 111,209 111,233l0,78l-68,0l0,82l68,0l0,89C111,544 130,594 167,633C204,671 256,690 324,690C369,690 409,682 442,666C475,649 503,624 528,590l-97,-71C418,538 404,552 390,560C375,568 359,572 340,572C291,572 266,542 266,481l0,-88l185,0l0,-82l-185,0l0,-70C266,211 262,187 253,169C244,150 227,134 202,120z" /><glyph unicode="¥" horiz-adv-x="568" d="M576,676l-177,-324l98,0l0,-82l-133,0l0,-72l133,0l0,-82l-133,0l0,-116l-158,0l0,116l-132,0l0,82l132,0l0,72l-132,0l0,82l96,0l-177,324l168,0l127,-281l125,281z" /><glyph unicode="+" horiz-adv-x="531" d="M331,549l0,-156l151,0l0,-122l-151,0l0,-156l-131,0l0,156l-152,0l0,122l152,0l0,156z" /><glyph unicode="×" horiz-adv-x="519" d="M376,510l87,-87l-116,-114l116,-119l-87,-87l-115,121l-118,-121l-87,87l115,114l-115,119l87,87l114,-121z" /><glyph unicode="÷" horiz-adv-x="519" d="M350,92C350,67 341,45 324,28C306,10 285,1 260,1C235,1 213,10 196,28C178,45 169,67 169,92C169,117 178,138 196,156C213,173 235,182 260,182C285,182 306,173 324,156C341,138 350,117 350,92M350,574C350,549 341,527 324,510C306,492 285,483 260,483C235,483 213,492 196,510C178,527 169,549 169,574C169,599 178,620 196,638C213,655 235,664 260,664C285,664 306,655 324,638C341,620 350,599 350,574M48,271l0,122l422,0l0,-122z" /><glyph unicode="=" horiz-adv-x="519" d="M48,375l0,122l422,0l0,-122M48,166l0,122l422,0l0,-122z" /><glyph unicode="&gt;" horiz-adv-x="519" d="M84,576l400,-174l0,-139l-400,-173l-50,115l316,128l-316,132z" /><glyph unicode="&lt;" horiz-adv-x="519" d="M434,576l50,-111l-316,-132l316,-128l-50,-115l-400,173l0,139z" /><glyph unicode="±" horiz-adv-x="531" d="M54,0l0,122l422,0l0,-122M331,622l0,-156l151,0l0,-122l-151,0l0,-156l-131,0l0,156l-152,0l0,122l152,0l0,156z" /><glyph unicode="~" horiz-adv-x="514" d="M228,269C214,278 203,284 195,288C187,291 178,293 169,293C154,293 142,289 133,281C124,272 113,259 100,241l-84,42C35,321 57,352 82,375C107,398 139,410 177,410C199,410 218,407 233,401C248,395 266,386 286,374C299,366 310,360 319,356C328,352 337,350 346,350C361,350 374,354 384,362C393,370 404,382 415,398l83,-41C479,319 458,289 433,266C408,243 376,232 338,232C315,232 296,235 280,242C264,248 247,257 228,269z" /><glyph unicode="µ" horiz-adv-x="582" d="M392,-17C386,-4 382,8 379,20C376,31 372,47 369,68C338,17 302,-8 261,-8C242,-8 225,-5 211,1C197,7 184,18 172,34C186,9 196,-14 203,-34C209,-55 212,-81 212,-113l0,-92l-150,-15l0,751l158,0l0,-364C220,126 237,106 270,106C285,106 300,111 315,122C330,132 343,148 355,169l0,362l158,0l0,-349C513,117 521,56 537,0z" /><glyph unicode="%" horiz-adv-x="859" d="M614,720l97,-62l-463,-698l-97,62M385,510C385,474 377,442 362,415C346,388 325,367 298,352C271,337 240,330 207,330C174,330 144,338 117,353C90,368 68,389 53,416C37,443 29,474 29,510C29,546 37,578 53,605C68,632 90,653 117,668C144,683 174,690 207,690C240,690 271,683 298,668C325,653 346,632 362,605C377,578 385,546 385,510M142,510C142,485 147,465 157,449C166,433 183,425 207,425C250,425 271,453 271,510C271,567 250,595 207,595C164,595 142,567 142,510M830,163C830,127 822,95 807,68C791,41 770,20 743,5C716,-10 685,-17 652,-17C619,-17 588,-10 561,5C534,20 512,41 497,68C481,95 473,127 473,163C473,199 481,231 497,258C512,285 534,305 561,320C588,335 619,342 652,342C685,342 716,335 743,320C770,305 791,285 807,258C822,231 830,199 830,163M587,163C587,138 592,118 602,102C611,85 628,77 652,77C695,77 716,106 716,163C716,219 695,247 652,247C609,247 587,219 587,163z" /><glyph unicode="@" horiz-adv-x="1020" d="M700,458l0,-247C700,170 704,142 711,126C718,110 730,102 747,102C773,102 793,118 808,151C823,183 830,237 830,314C830,403 805,473 754,522C703,571 627,595 526,595C456,595 396,580 346,551C295,521 257,480 231,427C204,374 191,312 191,242C191,134 220,49 278,-12C335,-74 418,-105 527,-105C560,-105 595,-102 630,-95C665,-89 697,-81 724,-71l37,-109C728,-193 691,-203 650,-210C608,-218 567,-222 526,-222C430,-222 346,-203 274,-165C202,-127 146,-73 107,-3C68,67 48,149 48,242C48,331 69,412 110,483C151,554 207,610 280,650C353,690 435,710 527,710C618,710 698,692 765,656C832,619 884,571 919,511C954,451 972,386 972,316C972,256 963,202 945,155C927,108 902,71 869,44C836,17 797,4 754,4C717,4 687,14 664,34C641,54 626,78 620,106C607,76 589,52 565,35C541,17 512,8 477,8C416,8 371,29 340,70C309,111 294,165 294,233C294,316 315,381 356,430C397,479 454,503 527,503C555,503 584,499 615,492C645,484 673,473 700,458M566,156l0,238C551,400 536,403 522,403C495,403 474,390 459,364C444,337 437,293 437,232C437,187 442,155 452,136C461,117 477,107 498,107C514,107 528,112 539,121C550,130 559,142 566,156z" /><glyph unicode="&amp;" horiz-adv-x="760" d="M527,550C527,511 516,477 494,448C471,419 438,390 395,361l135,-127C549,274 565,322 578,378l132,-39C685,266 654,204 618,153l121,-107l-135,-63l-78,75C464,8 391,-17 307,-17C258,-17 215,-9 178,7C141,23 112,46 91,75C70,104 60,138 60,177C60,217 71,252 93,282C114,312 148,342 195,373C159,408 134,437 120,462C106,486 99,513 99,544C99,574 107,602 123,627C139,652 163,672 196,687C228,702 267,710 313,710C357,710 395,703 428,689C460,675 485,656 502,632C519,608 527,581 527,550M251,544C251,527 255,511 264,497C272,483 287,465 308,444C331,459 349,475 360,491C371,507 376,525 376,546C376,565 371,581 360,592C349,603 334,608 315,608C295,608 279,602 268,591C257,579 251,563 251,544M225,186C225,159 235,137 255,120C275,103 301,95 334,95C376,95 414,108 447,133l-162,155C264,273 249,257 240,241C230,224 225,206 225,186z" /><glyph unicode="¶" horiz-adv-x="788" d="M672,693l0,-897l-138,-18l0,805l-92,0l0,-787l-138,-18l0,485C226,265 167,286 126,325C85,364 65,415 65,478C65,545 88,598 135,636C181,674 245,693 328,693z" /><glyph unicode="©" horiz-adv-x="810" d="M743,432C743,368 728,311 699,260C669,209 628,170 577,142C525,113 468,99 406,99C344,99 287,113 235,142C183,170 142,209 112,260C82,311 67,368 67,432C67,496 82,554 112,605C142,656 183,695 235,724C286,752 343,766 406,766C468,766 525,752 577,724C628,695 669,656 699,605C728,554 743,496 743,432M159,432C159,383 170,339 191,301C212,262 242,232 279,211C316,190 359,179 406,179C453,179 495,190 532,211C569,232 599,262 620,301C641,339 652,383 652,432C652,482 641,526 620,565C599,604 569,634 532,655C495,676 453,687 406,687C359,687 316,676 279,655C242,634 212,604 191,565C170,526 159,482 159,432M539,579l-48,-60C478,528 467,535 456,538C445,541 433,543 419,543C397,543 379,534 366,517C352,499 345,471 345,433C345,360 369,324 418,324C446,324 473,334 498,353l44,-64C505,254 460,236 409,236C354,236 311,253 279,288C247,322 231,370 231,433C231,473 239,508 254,538C269,567 290,590 317,606C344,622 374,630 408,630C433,630 456,626 479,617C501,608 521,595 539,579z" /><glyph unicode="®" horiz-adv-x="637" d="M593,484C593,432 581,385 558,344C534,303 501,270 460,247C418,224 371,212 319,212C267,212 220,224 179,247C137,270 104,303 80,344C56,385 44,432 44,484C44,536 56,583 80,625C104,667 137,700 179,724C220,747 267,759 319,759C371,759 418,747 460,724C501,700 534,667 558,625C581,583 593,536 593,484M515,484C515,525 507,562 491,593C474,624 451,649 422,666C392,683 358,692 319,692C281,692 247,683 217,666C187,649 164,624 147,593C130,562 122,525 122,484C122,443 130,408 147,377C164,346 187,322 217,305C247,288 281,279 319,279C358,279 392,288 422,305C451,322 474,346 491,377C507,408 515,443 515,484M374,469l74,-117l-82,0l-58,102l-22,0l0,-102l-71,0l0,282l84,0C388,634 432,605 432,546C432,528 427,512 417,499C406,486 392,476 374,469M286,512l30,0C345,512 359,524 359,548C359,569 344,580 314,580l-28,0z" /><glyph unicode="™" horiz-adv-x="906" d="M384,693l-15,-91l-110,0l0,-306l-116,0l0,306l-114,0l0,91M854,296l-111,0l-4,162l-1,39C738,524 741,559 746,603l-3,0l-70,-266l-90,0l-78,265l-2,0C508,552 510,504 509,458l-4,-162l-107,0l14,397l149,0l66,-250l58,250l155,0z" /><glyph unicode="°" horiz-adv-x="521" d="M39,541C39,575 48,605 65,631C82,656 104,676 132,690C159,703 188,710 218,710C248,710 277,703 304,690C331,676 354,656 371,631C388,605 396,575 396,541C396,506 388,476 371,450C354,424 331,404 304,390C277,376 248,369 218,369C188,369 159,376 132,390C105,404 82,424 65,451C48,477 39,507 39,541M287,541C287,565 281,584 269,598C256,612 239,619 218,619C197,619 180,612 167,598C154,584 148,565 148,541C148,517 154,498 167,484C180,469 197,462 218,462C239,462 255,469 268,484C281,498 287,517 287,541z" /><glyph unicode="|" horiz-adv-x="376" d="M262,810l0,-915l-147,0l0,915z" /><glyph unicode="¦" horiz-adv-x="376" d="M262,810l0,-367l-147,0l0,367M262,262l0,-367l-147,0l0,367z" /><glyph unicode="^" horiz-adv-x="559" d="M351,844l189,-317l-154,0l-108,199l-103,-199l-157,0l189,317z" /><glyph unicode="´" horiz-adv-x="340" d="M248,835l62,-118l-236,-95l-44,81z" /><glyph unicode="`" horiz-adv-x="340" d="M92,835l218,-132l-44,-81l-236,95z" />







































































































































































































</font>
</svg>
